#TITLE:Zhong Guo Hua;
#SUBTITLE:;
#ARTIST:S.H.E;
#TITLETRANSLIT:Zhong Guo Hua;
#SUBTITLETRANSLIT:;
#ARTISTTRANSLIT:S.H.E;
#CREDIT:;
#BANNER:Zhong Guo Hua-bn.png;
#BACKGROUND:Zhong Guo Hua-bg.png;
#LYRICSPATH:;
#CDTITLE:pm4cd.png;
#MUSIC:Zhong Guo Hua.mp3;
#OFFSET:0.000;
#SAMPLESTART:47.710;
#SAMPLELENGTH:20.000;
#SELECTABLE:YES;
#BPMS:0.000=100.020;
#STOPS:;
#BGCHANGES:;
// cache tags:
#FIRSTBEAT:0.500;
#LASTBEAT:315.000;
#SONGFILENAME:Songs/Music V.I.P ^_^/Zhong Guo Hua/Zhong Guo Hua.sm;
#HASMUSIC:1;
#HASBANNER:1;
#MUSICLENGTH:194.071;
// end cache tags

//---------------dance-single - ----------------
#NOTES:
     dance-single:
     :
     Hard:
     12:
     1.000,1.000,1.000,0.397,1.000,1024.000,275.000,77.000,0.000,209.000:
0000
0100
0010
0001
0000
0010
0100
1000
,
0000
0000
0100
0000
0010
0000
0001
0000
0010
0100
0010
0000
0100
0000
2000
0000
,
0000
3101
0010
1001
0000
1001
0100
1010
,
0000
0000
0000
0000
0000
0000
1001
0000
0000
0000
0000
0000
0100
0000
0000
0000
0000
0000
0011
0000
0000
0000
0000
0000
0100
0000
0000
0010
0000
0000
0101
0000
0000
0000
0000
0000
1001
0000
0100
0000
0010
0000
0100
0000
0010
0000
0100
0000
,
0010
0000
1101
0010
0100
1000
0100
0010
0100
0010
0001
0010
0100
1000
0100
1000
,
0100
0010
1001
0000
0100
0010
0001
0010
0100
0010
0001
0010
0100
1000
0100
0010
,
0001
0010
1100
0000
0010
0001
1010
0001
0010
0001
1010
0000
0001
0010
1001
0010
,
0001
0010
1001
0000
1000
0100
0010
0100
1000
0100
0010
0001
0010
0100
0010
0001
,
1010
0100
1010
0000
0100
0010
0001
0010
0100
0010
0100
1000
0100
1000
0100
0010
,
0001
0010
0101
0000
0010
0100
0010
0001
0010
0100
0010
0100
0010
0001
0010
0100
,
1000
0100
0010
0100
1000
0100
0010
0100
0010
0001
0010
0100
1000
0100
0010
0100
,
1000
0000
0000
0100
0000
0000
0010
0000
0000
0001
0000
0000
0010
0000
0000
0100
0000
0000
0010
0000
0000
0001
0000
0000
0010
0000
0000
0100
0000
0000
1000
0000
0000
0100
0000
0000
1010
0000
0001
0000
1000
0000
0011
0000
1000
0000
0001
0000
,
1010
0000
1011
0100
0010
0000
0001
0010
0100
0000
0010
0100
1000
0100
0010
0001
,
0010
0000
1000
0100
0010
0001
0010
0001
0010
0100
1000
0100
1000
0100
0010
0001
,
0010
0100
0010
0001
0010
0100
1001
0000
0100
0010
0100
1000
0100
0010
0001
0010
,
0100
1000
0100
0010
0100
1000
0100
0010
0001
0010
0100
0010
0100
1000
0100
0000
,
0010
0000
1001
0100
0011
0100
1010
0100
0011
0000
1001
0010
1100
0010
0101
0010
,
1001
0000
1010
0100
0011
0100
1010
0100
1001
0000
0102
1000
0110
0000
1103
0010
,
0101
0000
0000
0000
0000
0000
1001
0000
0000
0010
0000
0000
1100
0000
0000
0000
0000
0000
1100
0000
0010
0000
0100
0000
0011
0000
0000
0000
0000
0000
0100
0000
0000
0010
0000
0000
0002
0000
0000
0000
0000
0000
0013
0000
0000
0000
0000
0000
,
1000
0000
0000
0100
0000
0000
0020
0000
0000
0000
0000
0000
0130
0000
0000
0000
0000
0000
1000
0000
0000
0100
0000
0000
0010
0000
0000
0001
0000
0000
0010
0000
0000
0100
0000
0000
1001
0000
0100
0000
0010
0000
0101
0000
0010
0000
0100
0000
,
0011
0000
2101
0000
0000
0000
0011
0000
0000
0000
3112
1000
0110
0000
1010
0000
,
0000
0000
1213
0000
0000
0000
1001
0000
0000
0000
1321
0100
1001
0000
0101
0000
,
0100
0000
2131
0000
0000
0000
0110
0000
0000
0000
3211
1000
0011
0000
1001
0000
,
0000
0000
0000
0000
0000
0000
1321
0000
0000
0000
0000
0000
1000
0000
0000
0000
0000
0000
1100
0000
0000
0000
0000
0000
0001
0000
0000
0000
0000
0000
1132
0000
0000
0010
0000
0000
1000
0000
0000
0100
0000
0000
1010
0000
0100
0000
0010
0000
,
1100
0000
0010
0000
0100
0000
1123
0000
0000
0000
0000
0000
0000
0000
0000
0000
0000
0000
1001
0000
0000
0000
0000
0000
0000
0000
0000
0000
0000
0000
1231
0000
0000
0010
0000
0000
1001
0000
0000
0000
0000
0000
0011
0000
0000
0000
0000
0000
,
0000
0000
2311
0000
0000
0000
0101
0000
0000
0000
3121
1000
0101
0000
1001
0000
,
1000
0000
2131
0000
0000
0000
0011
0000
0000
0000
3112
1000
0110
0000
1010
0000
,
0100
0000
0000
1113
0000
0000
0001
0000
0000
0010
0000
0000
0100
0000
0000
1001
0000
0000
0101
0010
0001
1010
0001
0010
,
0101
0000
0010
0000
0100
0000
2002
0000
0000
0000
0000
0000
0100
0000
0000
0000
0000
0000
0010
0000
0000
0000
0000
0000
0100
0000
0000
0010
0000
0000
3223
0000
0000
0000
0000
0000
0001
0000
0000
0000
0000
0000
1000
0000
0000
0000
0000
0000
,
0001
1000
2332
0000
0010
0000
0100
0000
0010
0100
3013
0000
0100
0000
0010
0000
,
0001
0000
2200
0000
0010
0000
0001
0000
0010
0001
3322
0000
2000
0003
0202
3000
,
2030
0000
0000
3023
0000
0000
2032
0000
0000
0000
0000
0000
0000
0000
0000
0000
0000
0000
0300
0000
0000
0000
0000
0000
0100
0000
0000
3013
0000
0000
0001
0000
0000
0000
0000
0000
1001
0000
0100
0000
1000
0000
0101
0000
1000
0000
0100
0000
,
1001
0000
0100
0000
1000
0000
0111
0000
0000
0000
0000
0000
0100
0000
0000
0010
0000
0000
0001
0000
0000
0010
0000
0000
0100
0000
0000
0000
0000
0000
0001
0000
0000
0010
0000
0000
0100
0000
0000
1000
0000
0000
0100
0000
0000
0010
0000
0000
,
0100
0000
1001
0000
0010
0001
0010
0001
0010
0100
1000
0100
0010
0100
0010
0100
,
1000
0100
2001
0000
0001
0010
0001
0010
0100
0010
3002
0000
1000
0100
1000
0100
,
0010
0100
1013
0000
0001
0010
0100
0010
0001
0010
0100
1000
0100
0010
0100
0010
,
0101
1000
0101
0000
1000
0100
0010
0100
0010
0001
0010
0100
0010
0001
0010
0100
,
2000
0100
3011
0000
0100
1000
0100
1000
0100
0010
0001
0010
0001
0010
0100
1000
,
0100
0010
0100
1000
0100
0010
1001
0000
0100
0010
0001
0010
0001
0010
0200
0000
,
0301
0000
0000
0010
0000
0000
0100
0000
0000
0010
0000
0000
0001
0000
0000
0010
0000
0000
0100
0000
0000
1000
0000
0000
0100
0000
0000
0010
0000
0000
0001
0000
0000
0010
0000
0000
1100
0000
0001
0000
0100
0000
1001
0000
0100
0000
0001
0000
,
1100
0000
0001
0000
0100
0000
1011
0000
0000
0100
0000
0000
1000
0000
0000
0000
0000
0000
0001
0000
0000
0010
0000
0000
0100
0000
0000
0000
0000
0000
0001
0000
0000
0010
0000
0000
0001
0000
0000
0010
0000
0000
0100
0000
0000
1000
0000
0000
,
0100
0000
1000
0100
0010
0000
0100
0010
0001
0000
0010
0001
0010
0100
1000
0100
,
0010
0000
0001
0010
0100
0000
0010
0100
1000
0000
0100
0010
0100
1000
0100
0010
,
0001
0000
0100
1000
0100
0000
0001
0010
0100
0000
0010
0001
0010
0000
1000
0100
,
1000
0000
0010
0100
0010
0000
1000
0001
1000
0000
0100
0001
0100
0000
1000
0010
,
1000
0000
0001
0100
0001
0000
0001
1000
0001
0000
0100
0010
0100
0000
0010
0001
,
0010
0000
0100
1000
0100
0000
0001
0100
0001
0000
1000
0100
1000
0100
0010
0001
,
0010
0000
0000
0000
0000
0000
1000
0000
0000
0100
0000
0000
0010
0000
0000
0001
0000
0000
0010
0000
0000
0100
0000
0000
0010
0000
0000
0000
0000
0000
1000
0000
0000
0100
0000
0000
0010
0000
0000
0001
0000
0000
0110
0000
1000
0000
0010
0000
,
1001
0000
0010
0000
1000
0000
0211
0000
0000
0000
0000
0000
0000
0000
0000
0000
0000
0000
1001
0000
0000
0000
0000
0000
0000
0000
0000
0000
0000
0000
1312
0000
0000
0100
0000
0000
1010
0000
0000
0000
0000
0000
1010
0000
0000
0000
0000
0000
,
0000
0000
2113
0000
0000
0000
0011
0000
0000
0000
3121
1000
0101
0000
1001
0000
,
0100
0000
1132
0000
0000
0000
1010
0000
0000
0000
2113
0001
0110
0000
0110
0000
,
0100
0000
0000
0000
0000
0000
3121
0000
0000
0000
0000
0000
0001
0000
0000
0000
0000
0000
1100
0000
0000
0000
0000
0000
1000
0000
0000
0000
0000
0000
1231
0000
0000
0010
0000
0000
1001
0000
0010
0000
1000
0000
0011
0000
1000
0000
0010
0000
,
1001
0000
0010
0000
1000
0000
1312
0000
0000
0000
0000
0000
0000
0000
0000
0000
0000
0000
0110
0000
0000
0000
0000
0000
0000
0000
0000
0000
0000
0000
1213
0000
0000
0001
0000
0000
1010
0000
0000
0000
0000
0000
1001
0000
0000
0000
0000
0000
,
0000
0000
2311
0000
0000
0000
0101
0000
0000
0000
3211
1000
0011
0000
1001
0000
,
0010
0000
1312
0000
0000
0000
1100
0000
0000
0000
2113
0001
0110
0000
0011
0000
,
0100
0000
0000
3111
0000
0000
1000
0000
0000
0100
0000
0000
0010
0000
0000
1001
0000
0000
1001
0100
0001
1100
0001
0100
,
0011
0000
0100
0000
0001
0000
1110
0000
0000
0001
0000
0000
0010
0000
0000
0100
0000
0000
1010
0000
0000
0100
0000
0000
0010
0000
0000
1000
0000
0000
0110
0000
0000
0001
0000
0000
0010
0000
0000
0100
0000
0000
1001
0000
0000
0010
0000
0000
,
0001
0010
1100
0010
1000
0100
1001
0010
1000
0100
1001
0010
0001
1000
0101
0010
,
1000
0100
1010
0001
0100
0001
1100
0010
0100
0001
0110
1000
0001
0010
0101
0010
,
0100
0000
0000
0000
0000
0000
0000
0000
0000
0000
0000
0000
1000
0000
0000
0000
0000
0000
0000
0000
0000
0000
0000
0000
0220
0000
0000
0000
0000
0000
0000
0000
0000
0000
0000
0000
0001
0000
0000
0000
0000
0000
0000
0000
0000
0000
0000
0000
1000
0000
0000
0000
0000
0000
0000
0000
0000
0000
0000
0000
0001
0000
0000
0000
0000
0000
0000
0000
0000
0000
0000
0000
1000
0000
0000
0000
0000
0000
0000
0000
0000
0000
0000
0000
0001
0000
0000
0000
0000
0000
0000
0000
0000
0000
0000
0000
1000
0000
0000
0000
0000
0000
0000
0000
0000
0000
0000
0000
0001
0000
0000
0000
0000
0000
0000
0000
0000
0000
0000
0000
1000
0000
0000
0000
0000
0000
0001
0000
0000
0000
0000
0000
1000
0000
0000
0000
0000
0000
0001
0000
0000
0000
0000
0000
1000
0000
0000
0000
0000
0000
0001
0000
0000
0000
0000
0000
1000
0000
0000
0000
0000
0000
0001
0000
0000
0000
0000
0000
1000
0000
0000
0000
0001
0000
0000
0000
1000
0000
0000
0000
0001
0000
0000
0000
1000
0000
0000
0000
0001
0000
0000
0000
,
1000
0000
0000
0000
0001
0000
0000
0000
1000
0000
0000
0000
0001
0000
0000
0000
1000
0000
0330
0000
0000
0000
0000
0000
1112
0000
0000
0000
0000
0000
0000
0000
0000
0000
0000
0000
1000
0000
0000
0000
0000
0000
0000
0000
0000
0000
0000
0000
0100
0000
0000
0000
0000
0000
0000
0000
0000
0000
0000
0000
0010
0000
0000
0000
0000
0000
0000
0000
0000
0000
0000
0000
1100
0000
0000
0000
0000
0000
0000
0000
0000
0000
0000
0000
0010
0000
0000
0000
0000
0000
0000
0000
0000
0000
0000
0000
1000
0000
0000
0000
0000
0000
0000
0000
0000
0000
0000
0000
0100
0000
0000
0000
0000
0000
0000
0000
0000
0000
0000
0000
2113
0000
0000
0000
0000
0000
0000
0000
0000
0000
0000
0000
0011
0000
0000
0000
0000
0000
0000
0000
0000
0000
0000
0000
0110
0000
0000
0000
0000
0000
0000
0000
0000
0000
0000
0000
0010
0000
0000
0000
0000
0000
0000
0000
0000
0000
0000
0000
0101
0000
0000
0000
0000
0000
0000
0000
0000
0000
0000
0000
0010
0000
0000
0000
0000
0000
0000
0000
0000
0000
0000
0000
,
0001
0010
3121
1000
0100
0001
1100
0001
0100
0001
2131
0011
0101
0010
0110
0001
,
0100
0010
3112
1000
0010
0100
1010
0100
0010
1000
1213
0011
1001
0010
1010
0010
,
0001
0000
0000
1000
0000
0000
1312
0000
0000
0100
0000
0000
0010
0000
0000
1000
0000
0000
0110
0000
0000
1000
0000
0000
0010
0000
0000
0100
0000
0000
1123
0000
0000
1001
0000
0000
0101
0000
1000
0000
0001
0000
1100
0000
0001
0000
1000
0000
,
0101
0000
1000
0000
0001
0000
2131
0000
0000
0010
0000
0000
0001
0000
0000
0100
0000
0000
0011
0000
0000
0100
0000
0000
0010
0000
0000
0001
0000
0000
3121
0000
0000
1000
0000
0000
0100
0000
0000
1000
0000
0000
0101
0000
0000
1000
0000
0000
,
0001
0100
1132
0010
0100
0010
1100
0010
1000
0010
1213
1001
0011
1000
1001
0010
,
0001
1000
2311
0100
0001
0010
0101
0010
0100
0001
3121
1000
0001
0100
1001
0100
,
1000
0000
0000
0100
0000
0000
1132
0000
0000
0010
0000
0000
0100
0000
0000
0010
0000
0000
1100
0000
0000
0010
0000
0000
0100
0000
0000
1000
0000
0000
2113
0000
0000
0011
0000
0000
0101
0000
0000
0001
0000
0000
0110
0000
0001
0000
0100
0000
,
0011
0000
0100
0000
0001
0000
3111
0000
0000
1000
0000
0000
0101
0000
0000
0010
0000
0000
1001
0000
0000
0100
0000
0000
1010
0000
0000
0010
0000
0000
1101
0000
0000
0010
0000
0000
1100
0000
0000
0001
0000
0000
1010
0000
0000
0100
0000
0000
,
0011
1000
0111
1000
0101
0010
1001
0100
0011
1000
1101
0010
1100
0010
0101
0010
,
1100
0001
1110
0100
0011
1000
0101
0010
1001
0010
1101
0010
1100
0010
0101
1000
,
0011
0000
0000
0100
0000
0000
1011
0000
0000
0100
0000
0000
0010
0000
0000
0001
0000
0000
1101
0000
0000
0010
0000
0000
0101
0000
0000
0010
0000
0000
1100
0000
0000
0001
0000
0000
0110
0000
1000
0000
0001
0000
1010
0000
0001
0000
1000
0000
,
0011
0000
1000
0000
0001
0000
1110
0000
0000
0001
0000
0000
1100
0000
0000
0010
0000
0000
0101
0000
0000
1000
0000
0000
0011
0000
0000
0100
0000
0000
1011
0000
0000
0100
0000
0000
0011
0000
0000
0100
0000
0000
1010
0000
0000
0100
0000
0000
,
0011
0100
1110
0001
0110
1000
0101
0010
1100
0010
1101
0010
1100
0001
1010
0100
,
0011
1000
0111
1000
0101
0010
1100
0001
0110
1000
1101
0010
1100
0010
0101
0010
,
1001
0000
0000
0100
0000
0000
1011
0000
0000
0100
0000
0000
0011
0000
0000
1000
0000
0000
0110
0000
0000
0001
0000
0000
1100
0000
0000
0010
0000
0000
1101
0000
0000
0010
0000
0000
0101
0000
0000
0010
0000
0000
1100
0000
0001
0000
0100
0000
,
1010
0100
0022
0000
0000
0000
0100
1000
0100
0000
1000
0100
1000
0000
0100
1000
,
0133
2220
0002
0000
0000
0000
0000
0000
,
0000
0000
0000
3333
;

//---------------dance-single - ----------------
#NOTES:
     dance-single:
     :
     Easy:
     1:
     0.000,0.000,0.000,0.000,0.000,0.000,0.000,0.000,0.000,0.000:
0000
0000
0000
0000
;

//---------------dance-single - Copied from----------------
#NOTES:
     dance-single:
     Copied from:
     Medium:
     1:
     0.000,0.000,0.000,0.000,0.000,0.000,0.000,0.000,0.000,0.000:
0000
0000
0000
0000
;
